.
Авторизация | Регистрация
Хочешь лучшие торренты? Добавь свой email!
Добавить
» » Последний табор (1935) DVDRip от New-Team торрент скачать бесплатно




    Последний табор (1935) DVDRip от New-Team торрент скачать бесплатно

    Опубликовал: Админ | Дата: 14-05-2015, 18:54 | Просмотров: 179


    Снималось в: СССР
    Создали в: Межрабпомфильм
    Категория жанра: драма
    Создали в: 1935
    Время просмотра: 01: 21: 42
    Перевод текста: не требуется
    Оригинальная аудиодорожка: русский
    Субтитры подготовлены: нет
    Главный режиссер: Моисей Голдблат, Евгений Шнейдер

    Актеры

    Александр Гранах, Николай Мордвинов, М.Синельникова, Ляля Черная, Михаил Яншин, Петр Савин, Федор Блажевич, Евгения Рогулина...
    Описание:
    Старый вожак Данило крепко держит в руках цыганский табор. Но у него есть серьезный соперник — Иван Лихо, который ведет терпеливую борьбу за привлечение цыган к оседлой жизни. Он приглашает Данило с табором погостить в колхозе. Председатель обращается к цыганам за помощью в уборочную пору и просит лошадей. Данило приводит самую захудалую лошаденку из своего богатого табуна, чем вызывает недовольство заинтересованных в помощи колхозу цыган. В таборе назревает раскол…



    Исходник: DVD5 R5
    Тип релиза: DVDRip
    Контейнер: AVI
    Информация о видео: 656x496 (4: 3), 25 fps, XviD ~ 1712 kbps avg, 0.210 bit/pixel
    Информация о звуке: 48 kHz, Dolby Digital AC3 2.0, 192 kbps
    Раздача от:
    MediaInfo

    Общее
    Полное имя : Posledniy.tabor.1935.DVDRip_New-team_by_AVP_Studio.avi
    Формат : AVI
    Формат/Информация : Audio Video Interleave
    Размер файла : 1, 09 Гбайт
    Продолжительность : 1 ч. 21 м.
    Общий поток : 1913 Кбит/сек
    Программа кодирования : VirtualDubModRus 1.5.10.2 (build 2542/release)
    Библиотека кодирования : VirtualDubMod build 2542/release
    Видео
    Идентификатор : 0
    Формат : MPEG-4 Visual
    Профиль формата : Advanced Simple@L5
    Параметр BVOP формата : 1
    Параметр QPel формата : Нет
    Параметр GMC формата : Без точки перехода
    Параметр матрицы формата : Выборочная
    Идентификатор кодека : XVID
    Идентификатор кодека/Подсказка : XviD
    Продолжительность : 1 ч. 21 м.
    Битрейт : 1712 Кбит/сек
    Ширина : 656 пикселей
    Высота : 496 пикселей
    Соотношение сторон : 4: 3
    Частота кадров : 25, 000 кадров/сек
    Цветовое пространство : YUV
    Субдискретизация насыщенности : 4: 2: 0
    Битовая глубина : 8 бит
    Тип развёртки : Прогрессивная
    Метод сжатия : С потерями
    Бит/(Пиксели*Кадры) : 0.210
    Размер потока : 1000 Мбайт (89%)
    Библиотека кодирования : XviD 73
    Аудио
    Идентификатор : 1
    Формат : AC-3
    Формат/Информация : Audio Coding 3
    Расширение режима : CM (complete main)
    Параметр Endianness формата : Big
    Идентификатор кодека : 2000
    Продолжительность : 1 ч. 21 м.
    Вид битрейта : Постоянный
    Битрейт : 192 Кбит/сек
    Каналы : 2 канала
    Расположение каналов : Front: L R
    Частота : 48, 0 КГц
    Битовая глубина : 16 бит
    Метод сжатия : С потерями
    Размер потока : 112 Мбайт (10%)
    Выравнивание : Разделение по промежуткам
    Продолжительность промежутка : 40 мс. (1, 00 видеокадр)
    Время предзагрузки промежутка : 500 мс

    Скриншоты



    Залил: AVPStudio

    Онлайн видео Последний табор (1935) DVDRip от New


    Размер скачиваемого торрента: 1.09 GB (1172416512 Bytes)

    Последний табор (1935) DVDRip от New-Team
    загрузка...
    Рейтинг →
     (голосов: 1, оценка 4/5, голосовать можно 1 раз )

    Другие торренты по теме:

  • Последний табор (1935) DVDRip от New-Team


    • Комментарии (0):

      Информация

      Информация

        Посетители, находящиеся в группе Гости, не могут оставлять комментарии в данной новости.

        ↓ Меню



        ↓ Опрос

        Вы добавили сайт в закладки?
        Да
        Нет


        Top 10 за месяц (Фильмы)

        Стригой / Strigoi (Фэй Джексон) [2009, ужасы, фэнтези, драма, комедия, HDRip] MVO
        Стригой/Strigoi
        (скачиваний: 7)
        Дороги Индии, 1 сезон 1-160 серии из 160 / Caminho das Indias
        Дороги Индии,   1 сезон любимого сериала 1-160 серии из 160/Caminho das Indias Домашний
        (скачиваний: 7)
        Когда кричит твоя плоть / When Your Flesh Screams (Cuando tu carne grite Basta) (Гильермо Мартинес) [2015, ужасы, триллер, HDRip-AVC] AVO
        Когда кричит твоя плоть/When Your Flesh Screams
        (скачиваний: 5)
        Православные святыни России (телекомпания RTG HD) / [2013-2014, документальный, история, религия, HDTVRip 720p]
        Православные святыни России
        (скачиваний: 5)
        Крик дельфина скачать через торрент бесплатно
        Крик дельфина
        (скачиваний: 4)
        Дежурный врач / Черговий лікар (1-41 серии из 41) (Александр Онуфриев, Константин Денесюк, Сергей Сотниченко) [2016, мелодрама, медицинская драма, WEB-DL 720p]
        Дежурный врач/Черговий лікар
        (скачиваний: 4)
        День, когда всплыла рыба / The Day the Fish Came Out
        День,   когда всплыла рыба/The Day the Fish Came Out
        (скачиваний: 4)
        Дворняжка Ляля / Ляля. Возвращение. Часть 3 (1-35 серии из 35) скачать через торрент бесплатно
        Дворняжка Ляля/Ляля. Возвращение. Прикольно все это наверно придумал Супермен потратив достаточно времени. Часть 3
        (скачиваний: 4)
        Солдаты и офицеры (1-40 серии из 40)
        Солдаты  и  офицеры
        (скачиваний: 4)
        Операция: Супермаркет (1-6 серии из 6)
        Операция: Супермаркет
        (скачиваний: 4)