.
Авторизация | Регистрация
Хочешь лучшие торренты? Добавь свой email!
Добавить
» » Восхождение Юпитер / Jupiter Ascending (2015) BDRip 1080p | Лицензия торрент скачать бесплатно




    Восхождение Юпитер / Jupiter Ascending (2015) BDRip 1080p | Лицензия торрент скачать бесплатно

    Опубликовал: Админ | Дата: 18-05-2015, 10:14 | Просмотров: 172


    Детально о кино
    Русское название: Восхождение Юпитер
    Русское название в мировом прокате: Jupiter Ascending
    Создали в: 2015
    Категория жанра: Фантастика, фэнтези, боевик, приключения
    Снималось в: США, Aaron Sims Company, Village Roadshow Pictures, Warner Bros. Pictures
    Главный режиссер: Энди Вачовски, Лана Вачовски

    Актеры
    Ченнинг Татум, Мила Кунис, Шон Бин, Эдди Редмэйн, Дуглас Бут, Таппенс Мидлтон, Никки Амука-Бёрд, Кристина Коул, Николас А. Ньюман, Рамон Тикарам, Эрион Бакаре, Мария Дойл Кеннеди, Фрог Стоун, Дэвид Аджала, Ду На Пэ, Гугу Мбата-Роу, Эдвард Хогг, Тим Пиготт-Смит, Джеймс Д`Арси, Джереми Свифт

    Сюжет фильма
    Юпитер Джонс родилась под ночным небом, и все знаки предсказывали, что девочке предстоят великие свершения. Юпитер выросла и каждый день видит во сне звезды, но просыпается в жесткой реальности, где она работает уборщицей и моет туалеты. Личная жизнь Юпитер тоже оставляет желать лучшего, пока девушка не встречает Кейна. Кейн, бывший военный охотник, прибывает на Землю, чтобы отыскать Юпитер и раскрыть девушке ее истинное предназначение. Благодаря своим генетическим особенностям Юпитер становится претенденткой невероятного наследия, способного изменить равновесие во Вселенной.
    Файл
    Качество фильма: BDRip (1080p)
    Информация о видео: MPEG-4 AVC, 8000 Кбит/с, 1920x800
    Информация о звуке: Русский (AC3, 6 ch, 448 Кбит/с), английский (AC3, 6 ch, 640 Кбит/с)
    Размер скачиваемого торрента: 8.1 ГБ
    Время просмотра: 02: 07: 32
    Перевод текста: Дублированный лицензия
    Субтитры: Русские, английские
    MI
    Общее
    Уникальный идентификатор : 202713967415029805304605557576123579180 (0x98814A3D601AD8AE8FBD9EED20C47B2C)
    Полное имя : C: Jupiter.Ascending.2015.BDRip.1080p.by_bog3417.mkv
    Формат : Matroska
    Версия формата : Version 2
    Размер файла : 8, 10 Гбайт
    Продолжительность : 2 ч. 7 м.
    Общий поток : 9085 Кбит/сек
    Название фильма : Jupiter.Ascending.2015.BDRip.1080p.by_bog3417
    Дата кодирования : UTC 2015-05-09 11: 49: 02
    Программа кодирования : mkvmerge v7.4.0 (;Circles;) 64bit built on Dec 12 2014 12: 19: 56
    Библиотека кодирования : libebml v1.3.0 + libmatroska v1.4.1
    _STATISTICS_WRITING_APP : mkvmerge v7.4.0 (;Circles;) 64bit built on Dec 12 2014 12: 19: 56
    _STATISTICS_WRITING_DATE_UTC : 2015-05-09 11: 49: 02
    _STATISTICS_TAGS : BPS DURATION NUMBER_OF_FRAMES NUMBER_OF_BYTES
    DURATION : 02: 07: 34.336000000
    NUMBER_OF_FRAMES : 239198
    NUMBER_OF_BYTES : 428642816
    Видео
    Идентификатор : 1
    Формат : AVC
    Формат/Информация : Advanced Video Codec
    Профиль формата : High@L4.1
    Параметр CABAC формата : Да
    Параметр ReFrames формата : 5 кадров
    Идентификатор кодека : V_MPEG4/ISO/AVC
    Продолжительность : 2 ч. 7 м.
    Битрейт : 8000 Кбит/сек
    Ширина : 1920 пикселей
    Высота : 800 пикселей
    Соотношение сторон : 2, 40: 1
    Режим частоты кадров : Постоянный
    Частота кадров : 23, 976 кадра/сек
    Цветовое пространство : YUV
    Субдискретизация насыщенности : 4: 2: 0
    Битовая глубина : 8 бит
    Тип развёртки : Прогрессивная
    Бит/(Пиксели*Кадры) : 0.217
    Размер потока : 6, 97 Гбайт (86%)
    Заголовок : Jupiter.Ascending.2015.BDRip.1080p.by_bog3417
    Библиотека кодирования : x264 core 146 r2538 121396c
    Настройки программы : cabac=1/ref=5/deblock=1: -3: -3/analyse=0x3: 0x33/me=umh/subme=10/psy=1/psy_rd=1.00: 0.15/mixed_ref=1/me_range=32/chroma_me=1/trellis=2/8x8dct=1/cqm=0/deadzone=21, 11/fast_pskip=0/chroma_qp_offset=-3/threads=12/lookahead_threads=2/sliced_threads=0/nr=0/decimate=0/interlaced=0/bluray_compat=0/constrained_intra=0/bframes=9/b_pyramid=2/b_adapt=2/b_bias=0/direct=3/weightb=1/open_gop=0/weightp=2/keyint=240/keyint_min=23/scenecut=40/intra_refresh=0/rc_lookahead=60/rc=2pass/mbtree=1/bitrate=8000/ratetol=1.0/qcomp=0.60/qpmin=0/qpmax=69/qpstep=4/cplxblur=20.0/qblur=0.5/ip_ratio=1.40/aq=3: 0.90
    Язык : English
    Default : Да
    Forced : Нет
    _STATISTICS_WRITING_APP : mkvmerge v7.4.0 (;Circles;) 64bit built on Dec 12 2014 12: 19: 56
    _STATISTICS_WRITING_DATE_UTC : 2015-05-09 11: 49: 02
    _STATISTICS_TAGS : BPS DURATION NUMBER_OF_FRAMES NUMBER_OF_BYTES
    DURATION : 02: 07: 34.272000000
    NUMBER_OF_FRAMES : 183519
    NUMBER_OF_BYTES : 7649470201
    Аудио #1
    Идентификатор : 2
    Формат : AC-3
    Формат/Информация : Audio Coding 3
    Расширение режима : CM (complete main)
    Параметр Endianness формата : Big
    Идентификатор кодека : A_AC3
    Продолжительность : 2 ч. 7 м.
    Вид битрейта : Постоянный
    Битрейт : 448 Кбит/сек
    Каналы : 6 каналов
    Расположение каналов : Front: L C R, Side: L R, LFE
    Частота : 48, 0 КГц
    Битовая глубина : 16 бит
    Метод сжатия : С потерями
    Размер потока : 409 Мбайт (5%)
    Язык : Russian
    Default : Да
    Forced : Нет
    Аудио #2
    Идентификатор : 3
    Формат : AC-3
    Формат/Информация : Audio Coding 3
    Расширение режима : CM (complete main)
    Параметр Endianness формата : Big
    Идентификатор кодека : A_AC3
    Продолжительность : 2 ч. 7 м.
    Вид битрейта : Постоянный
    Битрейт : 640 Кбит/сек
    Каналы : 6 каналов
    Расположение каналов : Front: L C R, Side: L R, LFE
    Частота : 48, 0 КГц
    Битовая глубина : 16 бит
    Метод сжатия : С потерями
    Размер потока : 584 Мбайт (7%)
    Язык : English
    Default : Нет
    Forced : Нет
    Текст #1
    Идентификатор : 4
    Формат : UTF-8
    Идентификатор кодека : S_TEXT/UTF8
    Идентификатор кодека/Информация : UTF-8 Plain Text
    Язык : Russian
    Default : Да
    Forced : Нет
    Текст #2
    Идентификатор : 5
    Формат : UTF-8
    Идентификатор кодека : S_TEXT/UTF8
    Идентификатор кодека/Информация : UTF-8 Plain Text
    Язык : Russian
    Default : Нет
    Forced : Нет
    Текст #3
    Идентификатор : 6
    Формат : UTF-8
    Идентификатор кодека : S_TEXT/UTF8
    Идентификатор кодека/Информация : UTF-8 Plain Text
    Язык : Ukrainian
    Default : Нет
    Forced : Нет
    Текст #4
    Идентификатор : 7
    Формат : UTF-8
    Идентификатор кодека : S_TEXT/UTF8
    Идентификатор кодека/Информация : UTF-8 Plain Text
    Язык : English
    Default : Нет
    Forced : Нет
    Текст #5
    Идентификатор : 8
    Формат : UTF-8
    Идентификатор кодека : S_TEXT/UTF8
    Идентификатор кодека/Информация : UTF-8 Plain Text
    Заголовок : SDH
    Язык : English
    Default : Нет
    Forced : Нет
    Меню
    00: 00: 00.000 : en: 00: 00: 00.000
    00: 08: 45.024 : en: 00: 08: 45.024
    00: 19: 31.170 : en: 00: 19: 31.170
    00: 31: 32.974 : en: 00: 31: 32.974
    00: 41: 42.542 : en: 00: 41: 42.542
    00: 49: 35.639 : en: 00: 49: 35.639
    00: 58: 29.631 : en: 00: 58: 29.631
    01: 09: 20.031 : en: 01: 09: 20.031
    01: 19: 07.201 : en: 01: 19: 07.201
    01: 29: 09.427 : en: 01: 29: 09.427
    01: 36: 08.513 : en: 01: 36: 08.513
    01: 43: 26.575 : en: 01: 43: 26.575
    01: 52: 58.772 : en: 01: 52: 58.772
    01: 57: 59.489 : en: 01: 57: 59.489

    Скриншоты



    Онлайн видео Восхождение Юпитер


    Размер скачиваемого торрента: 8.10 GB (8692855280 Bytes)

    Восхождение Юпитер/Jupiter Ascending (2015) BDRip 1080p | Лицензия
    загрузка...
    Рейтинг →
     (голосов: 1, оценка 3/5, голосовать можно 1 раз )

    Другие торренты по теме:

  • Восхождение Юпитер / Jupiter Ascending (2015) BDRip 1080p от Ash61 | 3D-Video | halfOU | iTunes
  • Восхождение Юпитер / Jupiter Ascending (2015) HDRip от Scarabey | iTunes
  • Восхождение Юпитер / Jupiter Ascending (2015) BDRip 720p от Leonardo and Scarabey | Лицензия
  • Восхождение Юпитер / Jupiter Ascending (2015) BDRip 1080p от Ash61 | 3D-Video | halfOU | iTunes
  • Восхождение Юпитер / Jupiter Ascending (2015) BDRip 720p от Leonardo and Scarabey | Лицензия
  • Восхождение Юпитер / Jupiter Ascending (2015) HDRip от Scarabey | iTunes
  • Восхождение Юпитер 2D, 3D / Jupiter Ascending 2D, 3D (2015) BDRemux 1080р от ExKinoRay | 3D-Video | Лицензия
  • Восхождение Юпитер / Jupiter Ascending (2015) BDRip 1080p | Лицензия


    • Комментарии (0):

      Информация

      Информация

        Посетители, находящиеся в группе Гости, не могут оставлять комментарии в данной новости.

        ↓ Меню



        ↓ Опрос

        Вы добавили сайт в закладки?
        Да
        Нет


        Top 10 за месяц (Фильмы)

        Дороги Индии, 1 сезон 1-160 серии из 160 / Caminho das Indias
        Дороги Индии,   1 сезон любимого сериала 1-160 серии из 160/Caminho das Indias Домашний
        (скачиваний: 7)
        Стригой / Strigoi (Фэй Джексон) [2009, ужасы, фэнтези, драма, комедия, HDRip] MVO
        Стригой/Strigoi
        (скачиваний: 7)
        Когда кричит твоя плоть / When Your Flesh Screams (Cuando tu carne grite Basta) (Гильермо Мартинес) [2015, ужасы, триллер, HDRip-AVC] AVO
        Когда кричит твоя плоть/When Your Flesh Screams
        (скачиваний: 5)
        Православные святыни России (телекомпания RTG HD) / [2013-2014, документальный, история, религия, HDTVRip 720p]
        Православные святыни России
        (скачиваний: 5)
        Дворняжка Ляля / Ляля. Возвращение. Часть 3 (1-35 серии из 35) скачать через торрент бесплатно
        Дворняжка Ляля/Ляля. Возвращение. Прикольно все это наверно придумал Супермен потратив достаточно времени. Часть 3
        (скачиваний: 4)
        Операция: Супермаркет (1-6 серии из 6)
        Операция: Супермаркет
        (скачиваний: 4)
        Крик дельфина скачать через торрент бесплатно
        Крик дельфина
        (скачиваний: 4)
        Солдаты и офицеры (1-40 серии из 40)
        Солдаты  и  офицеры
        (скачиваний: 4)
        Дежурный врач / Черговий лікар (1-41 серии из 41) (Александр Онуфриев, Константин Денесюк, Сергей Сотниченко) [2016, мелодрама, медицинская драма, WEB-DL 720p]
        Дежурный врач/Черговий лікар
        (скачиваний: 4)
        День, когда всплыла рыба / The Day the Fish Came Out
        День,   когда всплыла рыба/The Day the Fish Came Out
        (скачиваний: 4)