.
Авторизация | Регистрация
Хочешь лучшие торренты? Добавь свой email!
Добавить
» » Территория (2015) WEB-DL 720p | iTunes торрент скачать бесплатно




    Территория (2015) WEB-DL 720p | iTunes торрент скачать бесплатно

    Опубликовал: Админ | Дата: 18-05-2015, 10:14 | Просмотров: 140


    Детально о кино
    Русское название: Территория
    Создали в: 2015
    Категория жанра: драма, приключения
    Главный режиссер: Александр Мельник

    Актеры
    Константин Лавроненко, Григорий Добрыгин, Егор Бероев, Ксения Кутепова, Евгений Цыганов, Владислав Абашин, Герасим Васильев, Константин Шелестун, Константин Балакирев, Олег Шапков

    Сюжет фильма
    Территория — это место, где люди проверяются на прочность. Необозримые пространства, где тундра встречается с ледяными торосами Ледовитого океана. Суровый русский север, которому способны бросить вызов немногие. Геолог Илья Чинков, одержимый идеей найти легендарное золото Территории, собирает команду смельчаков, готовых поставить на карту все, включая собственные жизни.


    Снималось в: Россия
    Время просмотра: 02: 31: 52
    Тип перевода: Оригинальное iTunes
    Файл
    Тип видео: MKV
    Качество фильма: WEB-DL 720p
    Информация о видео: 3926 kb/s, 1280@960x532
    Информация о звуке: AC3, 384 kb/s (6 ch)



    MI

    Format : Matroska
    Format version : Version 4/Version 2
    File size : 4.66 GiB
    Duration : 2h 31mn
    Overall bit rate : 4 397 Kbps
    Encoded date : UTC 2015-05-14 18: 13: 09
    Writing application : mkvmerge v6.9.1 (;Blue Panther;) 64bit built on Apr 18 2014 18: 23: 38
    Writing library : libebml v1.3.0 + libmatroska v1.4.1
    Video
    ID : 1
    Format : AVC
    Format/Info : Advanced Video Codec
    Format profile : Main@L3.1
    Format settings, CABAC : No
    Format settings, ReFrames : 2 frames
    Codec ID : V_MPEG4/ISO/AVC
    Duration : 2h 31mn
    Bit rate : 3 926 Kbps
    Width : 960 pixels
    Height : 532 pixels
    Display aspect ratio : 2.40: 1
    Frame rate : 25.000 fps
    Color space : YUV
    Chroma subsampling : 4: 2: 0
    Bit depth : 8 bits
    Scan type : Progressive
    Bits/(Pixel*Frame) : 0.307
    Stream size : 4.16 GiB (89%)
    Language : English
    Default : Yes
    Forced : No
    Color primaries : BT.709-5, BT.1361, IEC 61966-2-4, SMPTE RP177
    Transfer characteristics : BT.709-5, BT.1361
    Matrix coefficients : BT.709-5, BT.1361, IEC 61966-2-4 709, SMPTE RP177
    Audio
    ID : 2
    Format : AC-3
    Format/Info : Audio Coding 3
    Mode extension : CM (complete main)
    Format settings, Endianness : Big
    Codec ID : A_AC3
    Duration : 2h 31mn
    Bit rate mode : Constant
    Bit rate : 384 Kbps
    Channel(s) : 6 channels
    Channel positions : Front: L C R, Side: L R, LFE
    Sampling rate : 48.0 KHz
    Bit depth : 16 bits
    Compression mode : Lossy
    Stream size : 417 MiB (9%)
    Language : Russian
    Default : Yes
    Forced : No
    Menu
    00: 00: 00.000 : en: Р“Рава 1
    00: 04: 33.000 : en: Р“Рава 2
    00: 10: 45.000 : en: Р“Рава 3
    00: 18: 03.000 : en: Р“Рава 4
    00: 22: 27.000 : en: Р“Рава 5
    00: 27: 01.000 : en: Р“Рава 6
    00: 32: 39.000 : en: Р“Рава 7
    00: 39: 20.000 : en: Р“Рава 8
    00: 45: 28.000 : en: Р“Рава 9
    00: 51: 28.000 : en: Р“Рава 10
    00: 55: 35.000 : en: Р“Рава 11
    01: 01: 19.000 : en: Р“Рава 12
    01: 06: 59.000 : en: Р“Рава 13
    01: 15: 13.000 : en: Р“Рава 14
    01: 20: 38.000 : en: Р“Рава 15
    01: 25: 15.000 : en: Р“Рава 16
    01: 33: 46.000 : en: Р“Рава 17
    01: 37: 34.000 : en: Р“Рава 18
    01: 42: 21.000 : en: Р“Рава 19
    01: 47: 36.000 : en: Р“Рава 20
    01: 50: 58.000 : en: Р“Рава 21
    01: 55: 29.000 : en: Р“Рава 22
    02: 01: 33.000 : en: Р“Рава 23
    02: 09: 22.000 : en: Р“Рава 24
    02: 14: 02.000 : en: Р“Рава 25
    02: 19: 15.000 : en: Р“Рава 26
    02: 23: 30.000 : en: Р“Рава 27
    Скриншоты


    Онлайн видео Территория (2015) WEB-DL 720p


    Размер скачиваемого торрента: 4.66 GB (5008669929 Bytes)

    Территория (2015) WEB-DL 720p | iTunes
    загрузка...
    Рейтинг →
     (голосов: 1, оценка 5/5, голосовать можно 1 раз )

    Другие торренты по теме:

  • Земля. Территория загадок - Зона 51. Территория секретных экспериментов
  • Территория заблуждений с Игорем Прокопенко [Эфир от 11.02.2014] (Фёдор Калугин) [2014, документальный, SATRip] скачать через торрент бесплатно
  • Территория заблуждений с Игорем Прокопенко [Эфир от 04.02.2014] (Фёдор Калугин) [2014, документальный, SATRip] скачать через торрент бесплатно
  • Территория заблуждений с Игорем Прокопенко (Эфир от 21.01.2014) (Фёдор Калугин) [2014, документальный, научно-познавательный, история, путешествия, SATRip] скачать через торрент бесплатно
  • Территория заблуждений с Игорем Прокопенко [Эфир от 18.02.2014] (Фёдор Калугин) [2014, документальный, SATRip]
  • Территория заблуждений с Игорем Прокопенко [Эфир от 25.02.2014] (РЕН ТВ) [2014, телепередача, SATRip]
  • Территория заблуждений с Игорем Прокопенко (Эфир от 04.03.2014) (Фёдор Калугин) [2014, документальный, научно-познавательный, SATRip] скачать через торрент бесплатно
  • Территория (2015) WEB-DLRip-AVC | iTunes


    • Комментарии (0):

      Информация

      Информация

        Посетители, находящиеся в группе Гости, не могут оставлять комментарии в данной новости.

        ↓ Меню



        ↓ Опрос

        Вы добавили сайт в закладки?
        Да
        Нет


        Top 10 за месяц (Фильмы)