.
Авторизация | Регистрация
Хочешь лучшие торренты? Добавь свой email!
Добавить
» » Из машины / Ex Machina (2015) BDRip 1080p | D, A торрент скачать бесплатно




    Из машины / Ex Machina (2015) BDRip 1080p | D, A торрент скачать бесплатно

    Опубликовал: Админ | Дата: 21-05-2015, 15:04 | Просмотров: 150



    Детально о кино
    Русское название: Из машины
    Русское название в мировом прокате: Ex Machina
    Создали в: 2015
    Категория жанра: фантастика, драма
    Главный режиссер: Алекс Гарленд

    Актеры
    Донал Глисон, Кори Джонсон, Оскар Айзек, Алисия Викандер, Соноя Мизуно, Claire Selby, Симара А. Темплмен, Gana Bayarsaikhan, Тиффани Писани, Элина Алминас


    Сюжет фильма
    В центре сюжета — молодой человек, которого нанимает миллиардер, сделавший состояние на высокотехнологичных разработках. Задача работника — провести неделю в удаленном местечке, тестируя женщину-робота с искусственным интеллектом.



    Снималось в: Великобритания
    Время просмотра: 01: 48: 00
    Перевод текста: Профессиональный (полное дублирование)- Лицензия
    Авторский (одноголосый, закадровый)- А. Матвеев

    Файл
    Качество фильма: BDRip 1080p
    Тип видео: MKV
    Информация о видео: MPEG4/AVC, 13.5 Мбит/сек, 1920х804 (2.40: 1), 23.976 кадра/сек
    Информация о звуке 1: AC3, 6 каналов, 448 Кбит/сек | Русский - Лицензия
    Информация о звуке 2: AC3, 6 каналов, 448 Кбит/сек | Русский - А. Матвеев
    Информация о звуке 3: DTS, 6 каналов, 1509 Кбит/сек | Русский - А. Матвеев
    Информация о звуке 4: DTS, 6 каналов, 1509 Кбит/сек | Английский
    Информация о звуке 5: AC3, 2 канала, 192 Кбит/сек | Украинский - Mic (якісний) | Отдельно
    Субтитры: Русские (Forced, Full), украинские (Forced, Full), английские (Full, SDH)
    Навигация по главам: Есть

    MediaInfo:
    Общее
    Уникальный идентификатор : 194969781177615702757857985360096023131 (0x92ADD06120D5EC26874FE2938776525B)
    Полное имя : Ex_Machina. (2015) BDRip 1080p.mkv
    Формат : Matroska
    Версия формата : Version 2
    Размер файла : 13, 1 Гбайт
    Продолжительность : 1 ч. 48 м.
    Общий поток : 17, 4 Мбит/сек
    Название фильма : Ex Machina. 2015
    Дата кодирования : UTC 2015-05-20 19: 02: 51
    Программа кодирования : mkvmerge v5.8.0 (;No Sleep/Pillow;) built on Sep 2 2012 15: 37: 04
    Библиотека кодирования : libebml v1.2.3 + libmatroska v1.3.0

    Видео
    Идентификатор : 1
    Формат : AVC
    Формат/Информация : Advanced Video Codec
    Профиль формата : High@L4.1
    Параметр CABAC формата : Да
    Параметр ReFrames формата : 5 кадров
    Идентификатор кодека : V_MPEG4/ISO/AVC
    Продолжительность : 1 ч. 48 м.
    Битрейт : 13, 5 Мбит/сек
    Ширина : 1920 пикселей
    Высота : 804 пикселя
    Соотношение сторон : 2, 40: 1
    Режим частоты кадров : Постоянный
    Частота кадров : 23, 976 кадра/сек
    Цветовое пространство : YUV
    Субдискретизация насыщенности : 4: 2: 0
    Битовая глубина : 8 бит
    Тип развёртки : Прогрессивная
    Бит/(Пиксели*Кадры) : 0.365
    Размер потока : 9, 92 Гбайт (76%)
    Заголовок : WiKi
    Библиотека кодирования : x264 core 142 r2479 dd79a61
    Настройки программы : cabac=1/ref=5/deblock=1: -3: -3/analyse=0x3: 0x133/me=umh/subme=11/psy=1/psy_rd=1.00: 0.10/mixed_ref=1/me_range=64/chroma_me=1/trellis=2/8x8dct=1/cqm=0/deadzone=21, 11/fast_pskip=0/chroma_qp_offset=-3/threads=12/lookahead_threads=3/sliced_threads=0/nr=0/decimate=1/interlaced=0/bluray_compat=0/constrained_intra=0/bframes=10/b_pyramid=2/b_adapt=2/b_bias=0/direct=3/weightb=1/open_gop=0/weightp=2/keyint=250/keyint_min=23/scenecut=40/intra_refresh=0/rc_lookahead=80/rc=2pass/mbtree=1/bitrate=13500/ratetol=1.0/qcomp=0.75/qpmin=0/qpmax=69/qpstep=4/cplxblur=20.0/qblur=0.5/vbv_maxrate=38000/vbv_bufsize=30000/nal_hrd=none/filler=0/ip_ratio=1.40/aq=1: 0.75
    Язык : English
    Default : Да
    Forced : Нет

    Аудио #1
    Идентификатор : 2
    Формат : AC-3
    Формат/Информация : Audio Coding 3
    Расширение режима : CM (complete main)
    Параметр Endianness формата : Big
    Идентификатор кодека : A_AC3
    Продолжительность : 1 ч. 48 м.
    Вид битрейта : Постоянный
    Битрейт : 448 Кбит/сек
    Каналы : 6 каналов
    Расположение каналов : Front: L C R, Side: L R, LFE
    Частота : 48, 0 КГц
    Битовая глубина : 16 бит
    Метод сжатия : С потерями
    Размер потока : 346 Мбайт (3%)
    Заголовок : DUB | License | BD EUR
    Язык : Russian
    Default : Да
    Forced : Нет

    Аудио #2
    Идентификатор : 3
    Формат : AC-3
    Формат/Информация : Audio Coding 3
    Расширение режима : CM (complete main)
    Параметр Endianness формата : Big
    Идентификатор кодека : A_AC3
    Продолжительность : 1 ч. 48 м.
    Вид битрейта : Постоянный
    Битрейт : 448 Кбит/сек
    Каналы : 6 каналов
    Расположение каналов : Front: L C R, Side: L R, LFE
    Частота : 48, 0 КГц
    Битовая глубина : 16 бит
    Метод сжатия : С потерями
    Размер потока : 346 Мбайт (3%)
    Заголовок : AC3 | A | А. Матвеев
    Язык : Russian
    Default : Нет
    Forced : Нет

    Аудио #3
    Идентификатор : 4
    Формат : DTS
    Формат/Информация : Digital Theater Systems
    Режим : 16
    Параметр Endianness формата : Big
    Идентификатор кодека : A_DTS
    Продолжительность : 1 ч. 48 м.
    Вид битрейта : Постоянный
    Битрейт : 1509 Кбит/сек
    Каналы : 6 каналов
    Расположение каналов : Front: L C R, Side: L R, LFE
    Частота : 48, 0 КГц
    Битовая глубина : 24 бит
    Метод сжатия : С потерями
    Размер потока : 1, 14 Гбайт (9%)
    Заголовок : DTS | A | А. Матвеев
    Язык : Russian
    Default : Нет
    Forced : Нет

    Аудио #4
    Идентификатор : 5
    Формат : DTS
    Формат/Информация : Digital Theater Systems
    Режим : 16
    Параметр Endianness формата : Big
    Идентификатор кодека : A_DTS
    Продолжительность : 1 ч. 48 м.
    Вид битрейта : Постоянный
    Битрейт : 1509 Кбит/сек
    Каналы : 6 каналов
    Расположение каналов : Front: L C R, Side: L R, LFE
    Частота : 48, 0 КГц
    Битовая глубина : 24 бит
    Метод сжатия : С потерями
    Размер потока : 1, 14 Гбайт (9%)
    Заголовок : Original
    Язык : English
    Default : Нет
    Forced : Нет

    Текст #1
    Идентификатор : 6
    Формат : UTF-8
    Идентификатор кодека : S_TEXT/UTF8
    Идентификатор кодека/Информация : UTF-8 Plain Text
    Заголовок : Forced
    Язык : Russian
    Default : Да
    Forced : Нет

    Текст #2
    Идентификатор : 7
    Формат : UTF-8
    Идентификатор кодека : S_TEXT/UTF8
    Идентификатор кодека/Информация : UTF-8 Plain Text
    Заголовок : Full | MartinaG
    Язык : Russian
    Default : Нет
    Forced : Нет

    Текст #3
    Идентификатор : 8
    Формат : UTF-8
    Идентификатор кодека : S_TEXT/UTF8
    Идентификатор кодека/Информация : UTF-8 Plain Text
    Заголовок : Forced
    Язык : Ukrainian
    Default : Нет
    Forced : Нет

    Текст #4
    Идентификатор : 9
    Формат : UTF-8
    Идентификатор кодека : S_TEXT/UTF8
    Идентификатор кодека/Информация : UTF-8 Plain Text
    Заголовок : Full
    Язык : Ukrainian
    Default : Нет
    Forced : Нет

    Текст #5
    Идентификатор : 10
    Формат : UTF-8
    Идентификатор кодека : S_TEXT/UTF8
    Идентификатор кодека/Информация : UTF-8 Plain Text
    Заголовок : Full
    Язык : English
    Default : Нет
    Forced : Нет

    Текст #6
    Идентификатор : 11
    Формат : UTF-8
    Идентификатор кодека : S_TEXT/UTF8
    Идентификатор кодека/Информация : UTF-8 Plain Text
    Заголовок : SDH
    Язык : English
    Default : Нет
    Forced : Нет

    Меню
    00: 00: 00.000 : en: 00: 00: 00.000
    00: 04: 34.941 : en: 00: 04: 34.941
    00: 11: 16.634 : en: 00: 11: 16.634
    00: 15: 08.157 : en: 00: 15: 08.157
    00: 23: 38.751 : en: 00: 23: 38.751
    00: 31: 57.999 : en: 00: 31: 57.999
    00: 36: 05.163 : en: 00: 36: 05.163
    00: 40: 26.758 : en: 00: 40: 26.758
    00: 45: 56.379 : en: 00: 45: 56.379
    00: 53: 28.956 : en: 00: 53: 28.956
    01: 00: 26.081 : en: 01: 00: 26.081
    01: 04: 01.254 : en: 01: 04: 01.254
    01: 07: 19.077 : en: 01: 07: 19.077
    01: 13: 22.023 : en: 01: 13: 22.023
    01: 16: 56.111 : en: 01: 16: 56.111
    01: 21: 36.517 : en: 01: 21: 36.517
    01: 27: 36.835 : en: 01: 27: 36.835
    01: 32: 54.152 : en: 01: 32: 54.152
    01: 38: 51.008 : en: 01: 38: 51.008
    01: 42: 26.932 : en: 01: 42: 26.932



    Релиз подготовил:

    Онлайн видео Из машины


    Размер скачиваемого торрента: 13.14 GB (14105763678 Bytes)

    Из машины/Ex Machina (2015) BDRip 1080p | D, A
    загрузка...
    Рейтинг →
     (голосов: 1, оценка 5/5, голосовать можно 1 раз )

    Другие торренты по теме:

  • Маша и Медведь / 01- 55 из / Машкины страшилки / 01-10 из / Машины сказки / 01-26 из (Олег Кузовков, Олег Ужинов, Денис Червяцов) [2009-2016, Россия, мультфильм, комедия, семейный, BDRip]
  • Маша и Медведь / 01- 56 из / Машкины страшилки / 01-11 из / Машины сказки / 01-26 из (Олег Кузовков, Олег Ужинов, Денис Червяцов) [2009-2016, Россия, мультфильм, комедия, семейный, BDRip, WEB-DLRip]
  • Маша и Медведь / 01- 57 из / Машкины страшилки / 01-14 из / Машины сказки / 01-26 из (Олег Кузовков, Олег Ужинов, Денис Червяцов) [2009-20
  • Маша и Медведь / 01- 64 из / Машкины страшилки / 01-19 из / Машины сказки / 01-26 из (Олег Кузовков, Олег Ужинов, Денис Червяцов) [2009-20
  • Из машины / Ex Machina (2015) BDRip-AVC | Лицензия
  • Из машины / Ex Machina (2015) HDRip | Лицензия
  • Из машины / Ex Machina (2015) BDRip 1080p | Лицензия
  • Из машины / Ex Machina


    • Комментарии (0):

      Информация

      Информация

        Посетители, находящиеся в группе Гости, не могут оставлять комментарии в данной новости.

        ↓ Меню



        ↓ Опрос

        Вы добавили сайт в закладки?
        Да
        Нет


        Top 10 за месяц (Фильмы)

        Стригой / Strigoi (Фэй Джексон) [2009, ужасы, фэнтези, драма, комедия, HDRip] MVO
        Стригой/Strigoi
        (скачиваний: 7)
        Дороги Индии, 1 сезон 1-160 серии из 160 / Caminho das Indias
        Дороги Индии,   1 сезон любимого сериала 1-160 серии из 160/Caminho das Indias Домашний
        (скачиваний: 7)
        Когда кричит твоя плоть / When Your Flesh Screams (Cuando tu carne grite Basta) (Гильермо Мартинес) [2015, ужасы, триллер, HDRip-AVC] AVO
        Когда кричит твоя плоть/When Your Flesh Screams
        (скачиваний: 5)
        Православные святыни России (телекомпания RTG HD) / [2013-2014, документальный, история, религия, HDTVRip 720p]
        Православные святыни России
        (скачиваний: 5)
        Крик дельфина скачать через торрент бесплатно
        Крик дельфина
        (скачиваний: 4)
        Дежурный врач / Черговий лікар (1-41 серии из 41) (Александр Онуфриев, Константин Денесюк, Сергей Сотниченко) [2016, мелодрама, медицинская драма, WEB-DL 720p]
        Дежурный врач/Черговий лікар
        (скачиваний: 4)
        День, когда всплыла рыба / The Day the Fish Came Out
        День,   когда всплыла рыба/The Day the Fish Came Out
        (скачиваний: 4)
        Дворняжка Ляля / Ляля. Возвращение. Часть 3 (1-35 серии из 35) скачать через торрент бесплатно
        Дворняжка Ляля/Ляля. Возвращение. Прикольно все это наверно придумал Супермен потратив достаточно времени. Часть 3
        (скачиваний: 4)
        Солдаты и офицеры (1-40 серии из 40)
        Солдаты  и  офицеры
        (скачиваний: 4)
        Операция: Супермаркет (1-6 серии из 6)
        Операция: Супермаркет
        (скачиваний: 4)