.
Авторизация | Регистрация
Хочешь лучшие торренты? Добавь свой email!
Добавить
» » Курт Сеит и Александра / Kurt Seyit ve Sura (2014) WEB-DLRip | D торрент скачать бесплатно




    Курт Сеит и Александра / Kurt Seyit ve Sura (2014) WEB-DLRip | D торрент скачать бесплатно

    Опубликовал: Админ | Дата: 18-05-2015, 10:14 | Просмотров: 157


    Детально о кино
    Русское название: Курт Сеит и Александра/Курт Сеит и Шура
    Русское название в мировом прокате: Kurt Seyit ve Sura
    Создали в: 2014
    Категория жанра: драма, мелодрама, военный, история
    Главный режиссер: Хилаль Сарал

    Актеры
    Кыванч Татлытуг, Фара Зейнеп Абдулла, Berk Er?er, Сердар Гёкхан, Седа Гувен, Sarp Can K?roglu, Биркан Сокуллу, Ushan ?akir, Сергей Тэсслер

    Сюжет фильма

    Герои переживут крах правящей царской династии и Октябрьскую революцию. На фоне этих исторических событий, полных трагизма, горьких утрат, жестоких разочарований, и развернется история любви между бывшим офицером Царской армии лейтенантом Куртом Сеитом и шестнадцатилетней девушкой из аристократического рода Шурой.
    Официальный сайт
    Снималось в: Турция
    Киностудия: Ay Yapim, Star TV
    Время просмотра: ~ 01: 30: 00 серия
    Перевод текста: Професиональный (полное дублирование)Дубляж выполнен студией СВ-Дубль по заказу телеканала Домашний
    Файл
    Кодек для видео: XviD/MP3
    Качество фильма: WEB-DLRip
    Информация о видео: MPEG4, XviD, 720x400 (16: 9), 25.000 fps, 1 312 Kbps (0.182 bit/pixel)
    Информация о звуке: MP3, 44.1 KHz, 2 ch, 128 Kbps, CBR
    Скриншоты
    Screenshots
    MediaInfo
    General
    Complete name : Kurt Seyit ve Sura.s01.e14.avi
    Format : AVI
    Format/Info : Audio Video Interleave
    File size : 986 MiB
    Duration : 1h 35mn
    Overall bit rate : 1 450 Kbps
    Writing application : VirtualDubModRus 1.5.10.2 (build 2542/release)
    Writing library : VirtualDubMod build 2542/release
    TCOD : 0
    TCDO : 57029200000
    Video
    ID : 0
    Format : MPEG-4 Visual
    Format profile : Advanced Simple@L5
    Format settings, BVOP : 2
    Format settings, QPel : No
    Format settings, GMC : No warppoints
    Format settings, Matrix : Default (H.263)
    Muxing mode : Packed bitstream
    Codec ID : XVID
    Codec ID/Hint : XviD
    Duration : 1h 35mn
    Bit rate : 1 312 Kbps
    Width : 720 pixels
    Height : 400 pixels
    Display aspect ratio : 16: 9
    Frame rate : 25.000 fps
    Color space : YUV
    Chroma subsampling : 4: 2: 0
    Bit depth : 8 bits
    Scan type : Progressive
    Compression mode : Lossy
    Bits/(Pixel*Frame) : 0.182
    Stream size : 892 MiB (91%)
    Writing library : XviD 73
    Audio
    ID : 1
    Format : MPEG Audio
    Format version : Version 1
    Format profile : Layer 3
    Mode : Dual mono
    Codec ID : 55
    Codec ID/Hint : MP3
    Duration : 1h 35mn
    Bit rate mode : Constant
    Bit rate : 128 Kbps
    Channel(s) : 2 channels
    Sampling rate : 44.1 KHz
    Compression mode : Lossy
    Stream size : 87.0 MiB (9%)
    Alignment : Split accross interleaves
    Interleave, duration : 40 ms (1.00 video frame)
    Interleave, preload duration : 500 ms


    Онлайн видео Курт Сеит и Александра


    Размер скачиваемого торрента: 4.86 GB (5223457304 Bytes)

    Курт Сеит и Александра/Kurt Seyit ve Sura (2014) WEB-DLRip | D
    загрузка...
    Рейтинг →
     (голосов: 1, оценка 5/5, голосовать можно 1 раз )

    Другие торренты по теме:

  • Курт Сеит и Александра / Kurt Seyit ve Sura (2014) SATRip | D
  • Курт Сеит и Шура / Kurt Seyit ve Sura
  • Курт Сеит и Александра / Kurt Seyit ve Sura (2014) SATRip | D


    • Комментарии (0):

      Информация

      Информация

        Посетители, находящиеся в группе Гости, не могут оставлять комментарии в данной новости.

        ↓ Меню



        ↓ Опрос

        Вы добавили сайт в закладки?
        Да
        Нет


        Top 10 за месяц (Фильмы)

        Он, Она и Дети скачать через торрент бесплатно
        Он,   Она  и  Дети
        (скачиваний: 10)
        Когда кричит твоя плоть / When Your Flesh Screams (Cuando tu carne grite Basta) (Гильермо Мартинес) [2015, ужасы, триллер, HDRip-AVC] AVO
        Когда кричит твоя плоть/When Your Flesh Screams
        (скачиваний: 9)
        Катя: Военная история, Катя 2: Продолжение (1-2 сезон 1-28 серий из 28) (Эльёр Ишмухамедов, Алексей Мурадов) / [2009-2010, драма, мелодрама, военный, DVDRip]
        Катя: Военная история,   Катя 2: Продолжение
        (скачиваний: 5)
        Самая полезная программа. Правильное молоко (Эфир от 03.09.2016) (Рен ТВ) / [2016, ТВ-шоу, познавательный, SATRip]
        Самая полезная программа. Правильное молоко
        (скачиваний: 5)
        Визит к Минотавру (1-5 серии из 5)
        Визит к Минотавру
        (скачиваний: 4)
        Кащей Бессмертный (Цветная версия) (Александр Роу) / [1944, детский, фэнтези, SАTRір]
        Кащей Бессмертный
        (скачиваний: 4)
        Заряженные смертью
        Заряженные смертью
        (скачиваний: 3)
        Невидимый фронт (1-177 серии из ) (Афанасий Котов) / [2008, документальный, DVB]
        Невидимый фронт
        (скачиваний: 3)
        Казнить нельзя помиловать (1-12 серии из 12) (Ким Дружинин) / [2017, детектив, криминал, драма, военный, история, WEBRip]
        Казнить нельзя помиловать
        (скачиваний: 3)
        Опасный свет на краю земли / Маяк на краю света / The Light at the Edge of the World (Кевин Билингтон) [1971, фэнтези, триллер, драма, приключения, DVDRip] MVO
        Опасный свет на краю земли/Маяк на краю света/The Light at the Edge of the World
        (скачиваний: 3)