.
Авторизация | Регистрация
Хочешь лучшие торренты? Добавь свой email!
Добавить
» » Кибер / Blackhat (2015) BDRip 720p | KinoGadget and KinoXa | iPad торрент скачать бесплатно




    Кибер / Blackhat (2015) BDRip 720p | KinoGadget and KinoXa | iPad торрент скачать бесплатно

    Опубликовал: Админ | Дата: 18-05-2015, 10:14 | Просмотров: 153


    Создали в: 2015
    Снималось в: США
    Категория жанра: боевик, триллер, драма, криминал, детектив
    Время просмотра: 02: 13: 34
    Перевод текста: Дублированный
    Главный режиссер: Майкл Манн

    Актеры
    Крис Хемсворт, Ван Лихом, Тан Вэй, Виола Дэвис, Холт МакКэллани, Энди Он, Ричи Костер, Кристиан Борл, Джон Ортис, Йорик ван Вагенинген, Тайсон Чак, Брэндон Молале, Дэнни Бурстейн, Арчи Као, Абхи Синха, Джейсон Батлер Харнер, Мэнни Монтана, Спенсер Гаррет, Ши Лян, Кан Мок
    Описание: Спокойная, размеренная жизнь современного мирового пространства. Кажется, что ничто не может нарушить равномерный, плавный ход событий, жизнь настолько механизирована, все рассчитано до мельчайшей детали, казалось бы, что может произойти? Какое событие может выбить из колеи столь идеально отлаженную машину? Однако именно разработки в области новейших технологий представляют главную угрозу человечеству. Лучшие ученые умы из США и Китая объединяют силы в борьбе против самой мощной кибернетической атаки.

    Информация о видео кодек: MPEG-4 AVC
    Качество фильма: BDRip 720p
    Параметры Видео: 1280x528, 23.976 fps; ~1 443 kbps avg
    Параметры Звука: 44.1 KHz, AAC, ~150.00 kbps avg, 2ch
    Тип видео: mp4
    Автор рипа:
    Релиз-группа:

    Meta Tags


    MI
    General
    Complete name : E: Kiber.2015.D.BDRip.720p_KinoGadget.and.KinoXa.mp4
    Format : MPEG-4
    Format profile : Base Media
    Codec ID : isom
    File size : 1.49 GiB
    Duration : 2h 13mn
    Overall bit rate mode : Variable
    Overall bit rate : 1 600 Kbps
    Movie name : Кибер
    Performer : Майкл Манн
    Genre : Action, Crime, Drama
    ContentType : Short Film
    Recorded date : 2015
    Encoded date : UTC 2015-05-06 16: 06: 16
    Tagged date : UTC 2015-05-06 16: 39: 37
    Cover : Yes
    ContentRating : mpaa|R|400|
    LongDeion : Спокойная, размеренная жизнь современного мирового пространства. Кажется, что ничто не может нарушить равномерный, плавный ход событий, жизнь настолько механизирована, все рассчитано до мельчайшей детали, казалось бы, что может произойти? Какое событие может выбить из колеи столь идеально отлаженную машину? Однако именно разработки в области новейших технологий представляют главную угрозу человечеству. Лучшие ученые умы из США и Китая объединяют силы в борьбе против самой мощной кибернетической атаки.
    HDVideo : Yes
    Video
    ID : 1
    Format : AVC
    Format/Info : Advanced Video Codec
    Format profile : High@L4.1
    Format settings, CABAC : Yes
    Format settings, ReFrames : 11 frames
    Codec ID : avc1
    Codec ID/Info : Advanced Video Coding
    Duration : 2h 13mn
    Bit rate : 1 443 Kbps
    Maximum bit rate : 10.9 Mbps
    Width : 1 280 pixels
    Height : 528 pixels
    Display aspect ratio : 2.40: 1
    Frame rate mode : Constant
    Frame rate : 23.976 fps
    Color space : YUV
    Chroma subsampling : 4: 2: 0
    Bit depth : 8 bits
    Scan type : Progressive
    Bits/(Pixel*Frame) : 0.089
    Stream size : 1.35 GiB (90%)
    Writing library : x264 core 146 r2538 121396c
    Encoding settings : cabac=1/ref=11/deblock=1: -1: -1/analyse=0x3: 0x133/me=umh/subme=9/psy=1/psy_rd=1.00: 0.20/mixed_ref=1/me_range=24/chroma_me=1/trellis=2/8x8dct=1/cqm=0/deadzone=21, 11/fast_pskip=1/chroma_qp_offset=-3/threads=3/lookahead_threads=1/sliced_threads=0/nr=0/decimate=1/interlaced=0/bluray_compat=0/constrained_intra=0/bframes=6/b_pyramid=2/b_adapt=2/b_bias=0/direct=3/weightb=1/open_gop=0/weightp=2/keyint=240/keyint_min=23/scenecut=40/intra_refresh=0/rc_lookahead=60/rc=crf/mbtree=1/crf=21.0/qcomp=0.60/qpmin=0/qpmax=69/qpstep=4/ip_ratio=1.40/aq=1: 1.00
    Encoded date : UTC 2015-05-06 11: 16: 06
    Tagged date : UTC 2015-05-06 16: 06: 57
    Audio
    ID : 2
    Format : AAC
    Format/Info : Advanced Audio Codec
    Format profile : LC
    Codec ID : 40
    Duration : 2h 13mn
    Bit rate mode : Variable
    Bit rate : 150 Kbps
    Maximum bit rate : 229 Kbps
    Channel count : 2 channels
    Channel positions : Front: L R
    Sampling rate : 44.1 KHz
    Compression mode : Lossy
    Stream size : 143 MiB (9%)
    Language : Russian
    Encoded date : UTC 2015-05-06 16: 06: 41
    Tagged date : UTC 2015-05-06 16: 06: 57

    Скриншоты


    Залил: KinoGadget
    Размер скачиваемого торрента: 1.49 GB (1602304891 Bytes)

    Кибер/Blackhat (2015) BDRip 720p | KinoGadget and KinoXa | iPad
    загрузка...
    Рейтинг →
     (голосов: 1, оценка 3/5, голосовать можно 1 раз )

    Другие торренты по теме:

  • Atlantida Project - Bezdna / [2016, Кибер-Психо Панк, Кибер Фолк, MP3]
  • Кибер / Blackhat (2015) BDRemux 1080р от ExKinoRay | D | Лицензия
  • Кибер / Blackhat (2015) BDRemux 1080р от ExKinoRay | D | Лицензия
  • Кибер / Blackhat (2015) BDRip 720p | KinoGadget and KinoXa | iPad
  • Кибер / Blackhat (2015) HDRip от Scarabey | Лицензия
  • Кибер / Blackhat (2015) BDRip-AVC | D
  • Кибер / Blackhat (2015) BDRip 720p | iTunes
  • Кибер / Blackhat скачать через торрент бесплатно


    • Комментарии (0):

      Информация

      Информация

        Посетители, находящиеся в группе Гости, не могут оставлять комментарии в данной новости.

        ↓ Меню



        ↓ Опрос

        Вы добавили сайт в закладки?
        Да
        Нет


        Top 10 за месяц (Фильмы)