.
Авторизация | Регистрация
Хочешь лучшие торренты? Добавь свой email!
Добавить
» » Курт Сеит и Александра / Kurt Seyit ve Sura (2014) SATRip | D торрент скачать бесплатно




    Курт Сеит и Александра / Kurt Seyit ve Sura (2014) SATRip | D торрент скачать бесплатно

    Опубликовал: Админ | Дата: 14-05-2015, 18:54 | Просмотров: 106


    Детально о кино
    Русское название: Курт Сеит и Александра/Курт Сеит и Шура
    Русское название в мировом прокате: Kurt Seyit ve Sura
    Создали в: 2014
    Категория жанра: драма, мелодрама, военный, история
    Главный режиссер: Хилаль Сарал

    Актеры
    Кыванч Татлытуг, Фара Зейнеп Абдулла, Berk Er?er, Сердар Гёкхан, Седа Гувен, Sarp Can K?roglu, Биркан Сокуллу, Ushan ?akir, Сергей Тэсслер

    Сюжет фильма

    Герои переживут крах правящей царской династии и Октябрьскую революцию. На фоне этих исторических событий, полных трагизма, горьких утрат, жестоких разочарований, и развернется история любви между бывшим офицером Царской армии лейтенантом Куртом Сеитом и шестнадцатилетней девушкой из аристократического рода Шурой.
    Официальный сайт
    Снималось в: Турция
    Киностудия: Ay Yapim, Star TV
    Время просмотра: ~ 01: 30: 00 серия
    Перевод текста: Професиональный (полное дублирование)Дубляж выполнен студией СВ-Дубль по заказу телеканала Домашний
    Файл
    Кодек для видео: XviD/MP3
    Качество фильма: SATRip
    Информация о видео: MPEG4, XviD, 704x400 (16: 9), 25.000 fps, 1 699 Kbps (0.241 bit/pixel)
    Информация о звуке: MP3, 44.1 KHz, 2 ch, 192 Kbps, CBR
    Скриншоты
    Screenshots
    MediaInfo
    General
    Complete name : Kurt.Seit.i.Alexandra.01.sezon.(001.serija.iz.13).2014.XviD.SATRip.avi
    Format : AVI
    Format/Info : Audio Video Interleave
    File size : 1.15 GiB
    Duration : 1h 26mn
    Overall bit rate : 1 901 Kbps
    Writing library : VirtualDub build 35491/release
    Video
    ID : 0
    Format : MPEG-4 Visual
    Format profile : Advanced Simple@L5
    Format settings, BVOP : 2
    Format settings, QPel : No
    Format settings, GMC : No warppoints
    Format settings, Matrix : Default (H.263)
    Muxing mode : Packed bitstream
    Codec ID : XVID
    Codec ID/Hint : XviD
    Duration : 1h 26mn
    Bit rate : 1 699 Kbps
    Width : 704 pixels
    Height : 400 pixels
    Display aspect ratio : 16: 9
    Frame rate : 25.000 fps
    Color space : YUV
    Chroma subsampling : 4: 2: 0
    Bit depth : 8 bits
    Scan type : Progressive
    Compression mode : Lossy
    Bits/(Pixel*Frame) : 0.241
    Stream size : 1.02 GiB (89%)
    Writing library : XviD 73
    Audio
    ID : 1
    Format : MPEG Audio
    Format version : Version 1
    Format profile : Layer 3
    Codec ID : 55
    Codec ID/Hint : MP3
    Duration : 1h 26mn
    Bit rate mode : Constant
    Bit rate : 192 Kbps
    Channel(s) : 2 channels
    Sampling rate : 44.1 KHz
    Compression mode : Lossy
    Stream size : 119 MiB (10%)
    Alignment : Split accross interleaves
    Interleave, duration : 40 ms (1.00 video frame)
    Interleave, preload duration : 500 ms


    Онлайн видео Курт Сеит и Александра


    Размер скачиваемого торрента: 26.86 GB (28839781336 Bytes)

    Курт Сеит и Александра/Kurt Seyit ve Sura (2014) SATRip | D
    загрузка...
    Рейтинг →
     (голосов: 1, оценка 5/5, голосовать можно 1 раз )

    Другие торренты по теме:

  • Курт Сеит и Александра / Kurt Seyit ve Sura (2014) SATRip | D
  • Курт Сеит и Александра / Kurt Seyit ve Sura (2014) WEB-DLRip | D
  • Курт Сеит и Шура / Kurt Seyit ve Sura


    • Комментарии (0):

      Информация

      Информация

        Посетители, находящиеся в группе Гости, не могут оставлять комментарии в данной новости.

        ↓ Меню



        ↓ Опрос

        Вы добавили сайт в закладки?
        Да
        Нет


        Top 10 за месяц (Фильмы)

        Дороги Индии, 1 сезон 1-160 серии из 160 / Caminho das Indias
        Дороги Индии,   1 сезон любимого сериала 1-160 серии из 160/Caminho das Indias Домашний
        (скачиваний: 7)
        Стригой / Strigoi (Фэй Джексон) [2009, ужасы, фэнтези, драма, комедия, HDRip] MVO
        Стригой/Strigoi
        (скачиваний: 7)
        Когда кричит твоя плоть / When Your Flesh Screams (Cuando tu carne grite Basta) (Гильермо Мартинес) [2015, ужасы, триллер, HDRip-AVC] AVO
        Когда кричит твоя плоть/When Your Flesh Screams
        (скачиваний: 5)
        Православные святыни России (телекомпания RTG HD) / [2013-2014, документальный, история, религия, HDTVRip 720p]
        Православные святыни России
        (скачиваний: 5)
        Дворняжка Ляля / Ляля. Возвращение. Часть 3 (1-35 серии из 35) скачать через торрент бесплатно
        Дворняжка Ляля/Ляля. Возвращение. Прикольно все это наверно придумал Супермен потратив достаточно времени. Часть 3
        (скачиваний: 4)
        Операция: Супермаркет (1-6 серии из 6)
        Операция: Супермаркет
        (скачиваний: 4)
        Крик дельфина скачать через торрент бесплатно
        Крик дельфина
        (скачиваний: 4)
        Солдаты и офицеры (1-40 серии из 40)
        Солдаты  и  офицеры
        (скачиваний: 4)
        Дежурный врач / Черговий лікар (1-41 серии из 41) (Александр Онуфриев, Константин Денесюк, Сергей Сотниченко) [2016, мелодрама, медицинская драма, WEB-DL 720p]
        Дежурный врач/Черговий лікар
        (скачиваний: 4)
        День, когда всплыла рыба / The Day the Fish Came Out
        День,   когда всплыла рыба/The Day the Fish Came Out
        (скачиваний: 4)