.
Авторизация | Регистрация
Хочешь лучшие торренты? Добавь свой email!
Добавить
» » Центр нападения (1946) DVDRip от New-Team торрент скачать бесплатно




    Центр нападения (1946) DVDRip от New-Team торрент скачать бесплатно

    Опубликовал: Админ | Дата: 19-05-2015, 14:03 | Просмотров: 201


    Снималось в: СССР
    Создали в: Киевская киностудия
    Категория жанра: спорт
    Создали в: 1946
    Время просмотра: 01: 11: 17
    Перевод текста: Не требуется
    Субтитры подготовлены: нет
    Оригинальная аудиодорожка: русский
    Главный режиссер: Семен Деревянский, Игорь Земгано

    Актеры

    Екатерина Деревщикова, Виталий Доронин, Борис Толмазов, Юрий Лавров, Владимир Лепко, Юрий Тимошенко, Виктор Селезнев, Андрей Сова, Михаил Высоцкий, Лидия Карташова, Семен Деревянский...
    Описание:
    Инженер-конструктор, являющийся к тому же лучшим футболистом города - центром нападения футбольной команды Метеор, не задумываясь оставляет свою команду и любимую девушку, когда трудовые обязанности потребовали от него переезда в другой город. Друг-вратарь расценивает его поступок как предательство. Они встречаются на поле как соперники. После забавных перипетий друзья примиряются...



    Источник: DVD5 R5
    Качество фильма видео: DVDRip
    Тип видео видео: AVI
    Информация о видео: 688x512 (4: 3), 25 fps, XviD ~ 1325 kbps avg, 0.150 bit/pixel
    Информация о звуке: 48 kHz, MP3 2.0, 128 kbps
    Раздача от:
    MediaInfo

    Общее
    Полное имя : Centr.napadeniya.1946.DVDRip-745_New-team_by_AVP_Studio.avi
    Формат : AVI
    Формат/Информация : Audio Video Interleave
    Размер файла : 746 Мбайт
    Продолжительность : 1 ч. 11 м.
    Общий поток : 1462 Кбит/сек
    Программа кодирования : VirtualDubModRus 1.5.10.2 (build 2542/release)
    Библиотека кодирования : VirtualDubMod build 2542/release
    Видео
    Идентификатор : 0
    Формат : MPEG-4 Visual
    Профиль формата : Advanced Simple@L5
    Параметр BVOP формата : 1
    Параметр QPel формата : Нет
    Параметр GMC формата : Без точки перехода
    Параметр матрицы формата : Выборочная
    Идентификатор кодека : XVID
    Идентификатор кодека/Подсказка : XviD
    Продолжительность : 1 ч. 11 м.
    Битрейт : 1325 Кбит/сек
    Ширина : 688 пикселей
    Высота : 512 пикселей
    Соотношение сторон : 4: 3
    Частота кадров : 25, 000 кадров/сек
    Цветовое пространство : YUV
    Субдискретизация насыщенности : 4: 2: 0
    Битовая глубина : 8 бит
    Тип развёртки : Прогрессивная
    Метод сжатия : С потерями
    Бит/(Пиксели*Кадры) : 0.150
    Размер потока : 675 Мбайт (91%)
    Библиотека кодирования : XviD 73
    Аудио
    Идентификатор : 1
    Формат : MPEG Audio
    Версия формата : Version 1
    Профиль формата : Layer 3
    Идентификатор кодека : 55
    Идентификатор кодека/Подсказка : MP3
    Продолжительность : 1 ч. 11 м.
    Вид битрейта : Постоянный
    Битрейт : 128 Кбит/сек
    Каналы : 2 канала
    Частота : 48, 0 КГц
    Метод сжатия : С потерями
    Размер потока : 65, 3 Мбайт (9%)
    Выравнивание : Соединение по промежуткам
    Продолжительность промежутка : 40 мс. (1, 00 видеокадр)
    Время предзагрузки промежутка : 504 мс.
    Библиотека кодирования : LAME3.99r
    Залил: AVPStudio
    Размер скачиваемого торрента: 745.69 MB (781907968 Bytes)


    Центр нападения (1946) DVDRip от New-Team
    загрузка...
    Рейтинг →
     (голосов: 1, оценка 3/5, голосовать можно 1 раз )

    Другие торренты по теме:

  • Центр нападения (1946) DVDRip-AVC от New-Team
  • Центр нападения


    • Комментарии (0):

      Информация

      Информация

        Посетители, находящиеся в группе Гости, не могут оставлять комментарии в данной новости.

        ↓ Меню



        ↓ Опрос

        Вы добавили сайт в закладки?
        Да
        Нет


        Top 10 за месяц (Фильмы)

        Он, Она и Дети скачать через торрент бесплатно
        Он,   Она  и  Дети
        (скачиваний: 10)
        Когда кричит твоя плоть / When Your Flesh Screams (Cuando tu carne grite Basta) (Гильермо Мартинес) [2015, ужасы, триллер, HDRip-AVC] AVO
        Когда кричит твоя плоть/When Your Flesh Screams
        (скачиваний: 9)
        Катя: Военная история, Катя 2: Продолжение (1-2 сезон 1-28 серий из 28) (Эльёр Ишмухамедов, Алексей Мурадов) / [2009-2010, драма, мелодрама, военный, DVDRip]
        Катя: Военная история,   Катя 2: Продолжение
        (скачиваний: 5)
        Самая полезная программа. Правильное молоко (Эфир от 03.09.2016) (Рен ТВ) / [2016, ТВ-шоу, познавательный, SATRip]
        Самая полезная программа. Правильное молоко
        (скачиваний: 5)
        Невидимый фронт (1-177 серии из ) (Афанасий Котов) / [2008, документальный, DVB]
        Невидимый фронт
        (скачиваний: 5)
        Музейные тайны (8 сезон: 12 серий из 13) / Mysteries at the Museum (Реми Вебер, Стерлинг Милан, Ник Зейг-Овенс) [2015, документальный, пос
        Музейные тайны
        (скачиваний: 5)
        Кащей Бессмертный (Цветная версия) (Александр Роу) / [1944, детский, фэнтези, SАTRір]
        Кащей Бессмертный
        (скачиваний: 5)
        Визит к Минотавру (1-5 серии из 5)
        Визит к Минотавру
        (скачиваний: 4)
        Смерть на спортивной арене (Сергей Куракин) / [2016, документальный, спорт, драма, IPTVRip]
        Смерть на спортивной арене
        (скачиваний: 3)
        Мозг. Тайны сознания (1-3 серии из 3) / BBC. The Brain. A Secret History
        Мозг. Тайны сознания
        (скачиваний: 3)