.
Авторизация | Регистрация
» » Мстители: Эра Альтрона / Avengers: Age of Ultron (2015) TS от AleksSin | D торрент скачать бесплатно


    Мстители: Эра Альтрона / Avengers: Age of Ultron (2015) TS от AleksSin | D торрент скачать бесплатно

    Дата: 25-05-2015, 12:22 | .torrent скачали: 259

    Мстители: Эра Альтрона / Avengers: Age of Ultron (2015) TS от AleksSin | D
    Детально о кино
    Русское название: Мстители: Эра Альтрона
    Русское название в мировом прокате: Avengers: Age of Ultron
    Создали в: 2015
    Категория жанра: фантастика, боевик, триллер, приключения
    Главный режиссер: Джосс Уидон

    Актеры
    Роберт Дауни мл., Крис Хемсворт, Крис Эванс, Скарлетт Йоханссон, Марк Руффало, Джереми Реннер, Аарон Тейлор-Джонсон, Элизабет Олсен, Джеймс Спэйдер, Сэмюэл Л. Джексон

    Сюжет фильма

    Человечество на грани уничтожения. На этот раз людям угрожает Альтрон - искусственный интеллект, ранее созданный для того, чтобы защищать Землю от любых угроз. Однако, главной угрозой он посчитал человечество. Международная организация Щ. И. Т. распалась, и теперь мир не способен справиться с таким мощным врагом, потому люди вновь обращаются за помощью к Величайшим Героям Земли - Мстителям. Однако Альтрон слишком силен, и есть большая вероятность, что даже им не удастся остановить начало надвигающейся Эры Альтрона, где нет места для людей...

    Снималось в: США
    Время просмотра: 02: 13: 32
    Перевод текста: Дублированное звук CAMRip
    Файл
    Кодек для видео: AVI (XviD)
    Качество фильма: TS
    Информация о видео: 720x336 (2.14: 1), 23.976 fps, XviD build 73 ~1989 kbps avg, 0.34 bit/pixel
    Информация о звуке: 48 kHz, AC3 Dolby Digital, 2/0 (L, R) ch, ~192.00 kbps avg
    Субтитры: нет
    Семпл
    MediaInfo

    Общее
    Полное имя : S: Мстители. Эра Альтрона. 2015. TS (AleksSin).avi
    Формат : AVI
    Формат/Информация : Audio Video Interleave
    Профиль формата : OpenDML
    Размер файла : 2, 05 Гбайт
    Продолжительность : 2 ч. 13 м.
    Общий поток : 2193 Кбит/сек
    Программа кодирования : VirtualDubMod 1.5.10.3 | www.virtualdub-fr.org || (build 2550/release)
    Библиотека кодирования : VirtualDubMod build 2550/release
    Видео
    Идентификатор : 0
    Формат : MPEG-4 Visual
    Профиль формата : Advanced Simple@L5
    Параметр BVOP формата : 1
    Параметр QPel формата : Нет
    Параметр GMC формата : Без точки перехода
    Параметр матрицы формата : Выборочная
    Идентификатор кодека : XVID
    Идентификатор кодека/Подсказка : XviD
    Продолжительность : 2 ч. 13 м.
    Битрейт : 1989 Кбит/сек
    Ширина : 720 пикс.
    Высота : 336 пикс.
    Соотношение сторон : 2, 2: 1
    Частота кадров : 23, 976 кадр/сек
    Цветовое пространство : YUV
    Подвыборка цветности : 4: 2: 0
    Битовая глубина : 8 бит
    Тип развёртки : Прогрессивная
    Метод сжатия : С потерями
    Бит/(Пиксели*Кадры) : 0.343
    Размер потока : 1, 86 Гбайт (91%)
    Библиотека кодирования : XviD 73
    Аудио
    Идентификатор : 1
    Формат : AC-3
    Формат/Информация : Audio Coding 3
    Расширение режима : CM (complete main)
    Идентификатор кодека : 2000
    Продолжительность : 2 ч. 13 м.
    Вид битрейта : Постоянный
    Битрейт : 192 Кбит/сек
    Каналы : 2 канала
    Расположение каналов : Front: L R
    Частота : 48, 0 КГц
    Битовая глубина : 16 бит
    Метод сжатия : С потерями
    Размер потока : 183 Мбайт (9%)
    Выравнивание : Разделение по промежуткам
    Продолжительность промежутка : 42 мс. (1, 00 видеокадр)
    Время предзагрузки промежутка : 500 ms

    Скриншоты

    Релиз подготовил:
    Залил: *AleksSin*

    Онлайн видео Мстители: Эра Альтрона


    Размер скачиваемого торрента: 2.05 GB (2196633600 Bytes)

    Мстители: Эра Альтрона/Avengers: Age of Ultron (2015) TS от AleksSin | D
    Рейтинг →
     (голосов: 1, оценка 5/5, голосовать можно 1 раз )

    Другие торренты по теме:

  • Мстители: Эра Альтрона / Мстители: Эра Альтрона
  • Мстители: Эра Альтрона / Avengers: Age of Ultron
  • OST - Мстители: Эра Альтрона / Mstiteli: Era Altrona (Original Motion Picture Soundtrack)
  • Мстители: Эра Альтрона / Avengers: Age of Ultron 3D
  • Мстители: Эра Альтрона 3D [Вертикальная стереопара] / Avengers: Age of Ultron 3D [Half OverUnder]
  • Мстители: Эра Альтрона / Avengers: Age of Ultron (Джосс Уидон) [2015, фантастика, боевик, приключения, HDRip] DUB
  • Мстители: Эра Альтрона / Avengers: Age of Ultron (Джосс Уидон) [2015, фантастика, боевик, приключения, BDRip 720p] 2xDUB (rus,ukr)
  • Мстители: Эра Альтрона 3D / Avengers: Age of Ultron 3D (Джосс Уидон) [2015, фантастика, боевик, приключения, Blu-ray 3D 1080p] 2xDUB (rus,ukr)


    • Комментарии (0):

      Информация

      Информация

        Посетители, находящиеся в группе Гости, не могут оставлять комментарии в данной новости.

        ↓ Меню




        ↓ Опрос

        Вы добавили сайт в закладки?
        Да
        Нет


        Популярное

        Форсаж 1, 2, 3, 4, 5, 6, 7, 8 [Коллекция] / Fаst &аmр Furіоus (Роб Коэн, Джастин Лин) [2001-2017, боевик, криминал, BDRір] DUB
        Форсаж 1,   2,   3,   4,   5,   6,   7,   8 Коллекция/Fast amp; Furious
        (скачиваний: 77)
        Властелин Колец: Две сорванные башни / The Lord of the Rings: The Two Towers (Питер Джексон) [2002, фэнтези, боевик, драма, приключения, BDRip 720p] AVO
        Властелин Колец: Две сорванные башни/The Lord of the Rings: The Two Towers
        (скачиваний: 72)
        Рюриковичи (1-2 серия) / [2019, документальный, SATRip]
        Рюриковичи
        (скачиваний: 69)
        Страна советов. Забытые вожди 2 (2 сезон, 1-8 серии из 8) (Павел Сергацков) / [2019, документальный, исторический, WEB-DLRip]
        Страна советов. Забытые вожди 2
        (скачиваний: 66)
        Хоббит 1, 2, 3 [Трилогия] [Расширенная версия] / The Hobbit Part I, II, III
        Хоббит 1,   2,   3 Трилогия Расширенная версия/The Hobbit: Part I,   II,   III Trilogy
        (скачиваний: 64)
        Звездочёт (1-12 серии из 12)
        Звездочёт
        (скачиваний: 59)
        Дороги Индии, 1 сезон 1-160 серии из 160 / Caminho das Indias
        Дороги Индии,   1 сезон любимого сериала 1-160 серии из 160/Caminho das Indias Домашний
        (скачиваний: 59)
        Расследования авиакатастроф (19 сезон, 1-10 серии из 10) / National Geographic. Air Crash Investigation (Тим Волочатюк, Джордж Д’Амато) [2
        Расследования авиакатастроф
        (скачиваний: 47)
        Однажды в Америке [Расширенная версия] / Once Upon a Time in America [Extended Cut] (Серджио Леоне) [1984, драма, криминал, BDRip 1080p] A
        Однажды в Америке Расширенная версия/Once Upon a Time in America Extended Cut
        (скачиваний: 45)
        Война в Донбассе. Круги ада (Донбасс)
        Война в Донбассе. Круги ада
        (скачиваний: 37)